T'es fou Jerry.(Smorgasbord, Jerry LEWIS, 1983).VHSRip.avi URL Raccourcie







Titre original : Smorgasbord
Origine du film : Américain
Distributeur : Aucune information ...
Réalisateur : Jerry Lewis
Acteurs : Jerry Lewis, Herb Edelman, Zane Busby
Genre : Comédie
Durée : 1h19 min
Date de sortie : 13 Avril 1983 (France)
Année de production : 1983

Bande annonce VO :






Warren Nefron est un maladroit pathologique qui de plus, a de sérieux problèmes de communication et de relation avec autrui. Après quelques maladives tentatives de suicide, vouées systématiquement à de constants échecs, il décide de d'arrêter de fumer et de consulter un psychiatre pour suivre une thérapie qui finalement va s'avérer bénéfique au détriment du pauvre médecin...



Qualité : VHSRip
Format : DivX
Langue : Français
Sous-titre : Aucun
Format de l�image : 576*416
Bitrate Audio : 128 Kbps
Bitrate Video : 1105 Kbps

Taille du fichier: 735 Mo



Filmographie de Jerry Lewis de 1949 à 1970 :

1949 : Ma bonne amie Irma ; 1950 : Irma à Hollywood ; 1950 : Le Soldat récalcitrant (plusieurs versions dispo) ; 1951 : Bon sang ne peut mentir ; 1952 : La Polka des marins ; 1952 : Parachutiste malgré lui ; 1952 : En route vers Bali ; 1952 : Le Cabotin et son compère ; 1953 : Fais-moi peur ; 1953 : Amour, délices et golf ; 1953 : Un galop du diable ; 1954 : Ce n'est pas une vie ; 1954 : Le clown est roi ; 1955 : Un pitre au pensionnat ; 1955 : Artistes et Modèles ; 1956 : Le Trouillard du far west ; 1956 :Un vrai cinglé de cinéma ; 1957 : Le Délinquant involontaire ; 1957 : P'tite tête de troufion ; 1958 : Trois bébés sur les bras ; 1958 : Le Kid en kimono ; 1959 : Tiens bon la barre matelot ; 1960 : Mince de planète ; 1960 : Le Dingue du Palace (plusieurs versions dispo); 1960 : Cendrillon aux grands pieds ; 1961 : Le Tombeur de ces dames ; 1961 : Le Zinzin d'Hollywood ; 1962 : L'Increvable Jerry ; 1963 : Docteur Jerry et Mister Love ; 1963 : Un chef de rayon explosif ; 1964 : Jerry souffre-douleur (plusieurs versions dispo) ; 1964 : Jerry chez les cinoques ; 1965 : Les Tontons farceurs ; 1965 : Boeing Boeing ; 1966 : Trois sur un sofa ; 1966 : Tiens bon la rampe, Jerry ; 1966 : Un monde fou, fou, fou, fou (plusieurs versions dispo) ; 1967 : Te casse pas la tête Jerry ; 1967 : Jerry la grande gueule ; 1968 : Silent Treatment ; 1969 : Cramponne-toi Jerry ; 1970 : Ya ya mon général !


Bon film !






↓↓↓ T'es fou Jerry.(Smorgasbord, Jerry LEWIS, 1983).VHSRip.avi ↓↓↓
 
Seeders 4 Leechers 0 Téléchargements 796
 
Télécharger Dire merci! Signaler
Voir la liste des membres qui vous remercient
↑↑↑ T'es fou Jerry.(Smorgasbord, Jerry LEWIS, 1983).VHSRip.avi ↑↑↑

Informations

Nom T'es fou Jerry.(Smorgasbord, Jerry LEWIS, 1983).VHSRip.avi
Torrent T'es fou Jerry ! (1983).torrent
Catégorie Film
Taille totale 701.29 MB
Info Hash 4919f9eca542eeaf1b98e6e39069cc9110d942e4
Uploadé par Maxx17
Uploadé le 2013-12-12 10:17:21 (+00:00)
Visites 1085
évaluation 4.6/5 (17 votes)

Liste des Fichiers

Path Size
T'es fou Jerry ! (1983)/T'es fou Jerry.(Smorgasbord, Jerry LEWIS, 1983).VHSRip.avi 701.25 MB
T'es fou Jerry ! (1983)/T'es fou Jerry.jpg 45.8 KB
T'es fou Jerry ! (1983)/T'es fou Jerry.nfo 3.14 KB

Voir le NFO

{\rtf1\ansi\ansicpg1252\cocoartf1265
{\fonttbl\f0\fnil\fcharset0 Geneva;}
{\colortbl;\red255\green255\blue255;}
\paperw11900\paperh16840\margl1440\margr1440\vieww10800\viewh8400\viewkind0
\pard\tx560\tx1120\tx1680\tx2240\tx2800\tx3360\tx3920\tx4480\tx5040\tx5600\tx6160\tx6720\pardirnatural

\f0\fs20 \cf0 General\
Complete name                            : T'es fou Jerry.(Smorgasbord, Jerry LEWIS, 1983).VHSRip.avi\
Format                                   : AVI\
Format/Info                              : Audio Video Interleave\
File size                                : 701 MiB\
Duration                                 : 1h 18mn\
Overall bit rate                         : 1 243 Kbps\
Writing application                      : FairUse Wizard - http://fairusewizard.com\
Writing library                          : The best and REALLY easy backup tool\
\
Video\
ID                                       : 0\
Format                                   : MPEG-4 Visual\
Format settings, BVOP                    : 1\
Format settings, QPel                    : No\
Format settings, GMC                     : No warppoints\
Format settings, Matrix                  : Default (H.263)\
Muxing mode                              : Packed bitstream\
Codec ID                                 : DX50\
Codec ID/Hint                            : DivX 5\
Duration                                 : 1h 18mn\
Bit rate                                 : 1 105 Kbps\
Width                                    : 576 pixels\
Height                                   : 416 pixels\
Display aspect ratio                     : 1.385\
Frame rate                               : 25.000 fps\
Color space                              : YUV\
Chroma subsampling                       : 4:2:0\
Bit depth                                : 8 bits\
Scan type                                : Progressive\
Compression mode                         : Lossy\
Bits/(Pixel*Frame)                       : 0.185\
Stream size                              : 624 MiB (89%)\
Writing library                          : DivX 6.8.5 (UTC 2009-08-20)\
\
Audio\
ID                                       : 1\
Format                                   : MPEG Audio\
Format version                           : Version 1\
Format profile                           : Layer 3\
Mode                                     : Joint stereo\
Mode extension                           : MS Stereo\
Codec ID                                 : 55\
Codec ID/Hint                            : MP3\
Duration                                 : 1h 18mn\
Bit rate mode                            : Constant\
Bit rate                                 : 128 Kbps\
Channel(s)                               : 2 channels\
Sampling rate                            : 48.0 KHz\
Compression mode                         : Lossy\
Stream size                              : 72.2 MiB (10%)\
Alignment                                : Aligned on interleaves\
Interleave, duration                     : 40 ms (1.00 video frame)\
Interleave, preload duration             : 504 ms\
Writing library                          : LAME3.97 \
Encoding settings                        : -m j -V 4 -q 2 -lowpass 17 -b 128\
\
}

Ajouter un commentaire

jean59200 ↑ 4.39 TB ↓ 2.14 TB Ratio: 2,05

merci pour le partage

eulmi ↑ 326.76 GB ↓ 54.27 GB Ratio: 6,02

Merci...

junior131 ↑ 247.62 GB ↓ 228.78 GB Ratio: 1,08

merci pour pour se film

Maxx17 ↑ 746.92 GB ↓ 328.59 GB Ratio: 2,27

Désolé, je n'ai pas "Ya ya mon général !".
J'ai fait une petite recherche sur le net et ne l'ai pas trouvé.
Donc avis, si une âme charitable veut bien ripper sa VHS. Merci d'avance !

berry13

Merci...il est dingo...Jerry!

kiki74 ↑ 6.8 TB ↓ 6.84 TB Ratio: 0,99

Merci infiniment....

Kiki74

murphybrac ↑ 9.3 TB ↓ 7.32 TB Ratio: 1,27

merci, il est vraiment déjanté ce mec

 
Loading...